<?xml version="1.0" standalone="no"?>
<!DOCTYPE svg PUBLIC "-//W3C//DTD SVG 1.1//EN" "http://www.w3.org/Graphics/SVG/1.1/DTD/svg11.dtd" >
<svg xmlns="http://www.w3.org/2000/svg">
<metadata>
Created by FontForge 20120731 at Fri Jul  1 11:55:08 2016
 By admin
</metadata>
<defs>
<font id="iconfont" horiz-adv-x="1024" >
  <font-face 
    font-family="iconfont"
    font-weight="500"
    font-stretch="normal"
    units-per-em="1024"
    panose-1="2 0 6 3 0 0 0 0 0 0"
    ascent="896"
    descent="-128"
    x-height="792"
    bbox="0 -212 1068 896"
    underline-thickness="50"
    underline-position="-100"
    unicode-range="U+0078-E6DA"
  />
<missing-glyph horiz-adv-x="374" 
d="M34 0v682h272v-682h-272zM68 34h204v614h-204v-614z" />
    <glyph glyph-name=".notdef" horiz-adv-x="374" 
d="M34 0v682h272v-682h-272zM68 34h204v614h-204v-614z" />
    <glyph glyph-name=".null" horiz-adv-x="0" 
 />
    <glyph glyph-name="nonmarkingreturn" horiz-adv-x="341" 
 />
    <glyph glyph-name="x" unicode="x" horiz-adv-x="1001" 
d="M281 543q-27 -1 -53 -1h-83q-18 0 -36.5 -6t-32.5 -18.5t-23 -32t-9 -45.5v-76h912v41q0 16 -0.5 30t-0.5 18q0 13 -5 29t-17 29.5t-31.5 22.5t-49.5 9h-133v-97h-438v97zM955 310v-52q0 -23 0.5 -52t0.5 -58t-10.5 -47.5t-26 -30t-33 -16t-31.5 -4.5q-14 -1 -29.5 -0.5
t-29.5 0.5h-32l-45 128h-439l-44 -128h-29h-34q-20 0 -45 1q-25 0 -41 9.5t-25.5 23t-13.5 29.5t-4 30v167h911zM163 247q-12 0 -21 -8.5t-9 -21.5t9 -21.5t21 -8.5q13 0 22 8.5t9 21.5t-9 21.5t-22 8.5zM316 123q-8 -26 -14 -48q-5 -19 -10.5 -37t-7.5 -25t-3 -15t1 -14.5
t9.5 -10.5t21.5 -4h37h67h81h80h64h36q23 0 34 12t2 38q-5 13 -9.5 30.5t-9.5 34.5q-5 19 -11 39h-368zM336 498v228q0 11 2.5 23t10 21.5t20.5 15.5t34 6h188q31 0 51.5 -14.5t20.5 -52.5v-227h-327z" />
    <glyph glyph-name="uniE617" unicode="&#xe617;" 
d="M563 501l1 140h-102l-1 -140l-141 -1l1 -103l140 1l-1 -139l102 -1l1 141l141 1l-1 102zM923 682q-2 11 -11 16q-31 14 -382 146q-6 5 -14 5h-4q-7 0 -13 -5q-352 -132 -382 -146q-10 -5 -11 -16q-6 -37 -1 -111q8 -105 39 -205q41 -134 117 -239q94 -129 235 -207
q9 -5 18 -1q4 -2 8 -2q6 0 10 3q142 78 236 207q76 105 117 239q30 100 38 205q6 74 0 111zM882 574q-7 -101 -36 -197q-88 -285 -332 -420q-244 135 -331 420q-29 96 -37 197q-4 53 -1 91q65 27 369 141q304 -114 370 -141q2 -38 -2 -91z" />
    <glyph glyph-name="uniE61A" unicode="&#xe61a;" 
d="M512 605q-58 0 -99 -41t-41 -99t41 -99t99 -41t99 41t41 99t-41 99t-99 41zM512 372q-39 0 -66 27.5t-27 66t27 65.5t66 27t66 -27t27 -65.5t-27 -66t-66 -27.5zM512 814q-101 0 -187 -49t-135.5 -134t-49.5 -185q0 -57 38 -136t93 -151t109.5 -135.5t93.5 -102.5l38 -38
q8 8 21.5 21t52 54.5t73.5 82.5t78 97.5t74 107t52 104.5t21 96q0 100 -49.5 185t-135.5 134t-187 49zM512 -47l-35 35q-22 22 -78.5 86t-99 122t-78 128.5t-35.5 120.5q0 88 43.5 162t118.5 117.5t164 43.5t164 -43.5t118.5 -117.5t43.5 -162q0 -50 -33.5 -119t-81.5 -132
t-96 -118.5t-81 -89.5z" />
    <glyph glyph-name="uniE622" unicode="&#xe622;" 
d="M506 110l-16 14q-28 26 -50 49q-62 65 -110 140q-72 114 -69 197q5 100 76 168q72 70 175 70q51 0 98.5 -19.5t83.5 -55.5q69 -69 68 -166v-10q-1 -13 -4 -27q-12 -68 -50 -132q-25 -41 -69 -92q-38 -47 -72 -77q-12 -13 -20 -20zM512 707q-86 0 -146 -58t-64 -141
q-3 -70 63 -173q45 -71 105 -134q17 -18 35 -35l13 12q8 8 21 20v1q32 28 68 73h1q41 49 65 87q34 57 45 118v1q2 11 3 22v8q1 79 -56 137q-63 62 -153 62zM512 410q-43 0 -73.5 29.5t-30.5 71t30.5 70.5t73.5 29t73 -29t30 -70.5t-30 -71t-73 -29.5zM512 569
q-26 0 -44.5 -17t-18.5 -41.5t18.5 -42t44.5 -17.5t44 17.5t18 42t-18 41.5t-44 17zM947 476l-137 -48l12 -39l97 34v-450l-272 -71l-286 77l-256 -62v439l99 67l-27 31l-113 -75v0v-509h41l256 64l286 -81l313 90v499z" />
    <glyph glyph-name="uniE633" unicode="&#xe633;" 
d="M777 -28h-89q-13 0 -21.5 8.5t-8.5 20.5v59q0 12 8.5 21t21.5 9h59v176h-208v-176h30q12 0 20.5 -9t8.5 -21v-59q0 -12 -8.5 -20.5t-20.5 -8.5h-90q-12 0 -20.5 8.5t-8.5 20.5v59q0 12 8.5 21t20.5 9h30v176h-208v-176h59q13 0 21.5 -9t8.5 -21v-59q0 -12 -8.5 -20.5
t-21.5 -8.5h-89q-12 0 -21 8.5t-9 20.5v59q0 12 9 21t21 9v176v29h30h208v206h-30q-12 0 -20.5 8.5t-8.5 20.5v59q0 12 8.5 21t20.5 9h90q12 0 20.5 -9t8.5 -21v-59q0 -12 -8.5 -20.5t-20.5 -8.5h-30v-206h208h30v-29v-176q12 0 21 -9t9 -21v-59q0 -12 -9 -20.5t-21 -8.5z
" />
    <glyph glyph-name="uniE63B" unicode="&#xe63b;" 
d="M512 752q-94 0 -180 -36.5t-148.5 -99t-99 -148.5t-36.5 -180t36.5 -180.5t99 -149.5t148.5 -100.5t180 -37.5t180.5 37t149.5 99.5t100.5 149.5t37.5 182.5t-37 181.5t-99.5 148t-149 98t-182.5 36zM483 537q0 13 9.5 22.5t23 9.5t23.5 -9.5t10 -22.5v-187
q0 -14 -10 -23.5t-23.5 -9.5t-23 9.5t-9.5 23.5v187zM512 7q-104 0 -176.5 72t-72.5 176q0 78 44 140t114 90v-69q-43 -26 -69 -68t-26 -93q0 -77 54.5 -131.5t131.5 -54.5t131.5 54.5t54.5 131.5q0 52 -25 94t-70 67v69q70 -28 114 -90t44 -140q0 -102 -72.5 -175
t-176.5 -73zM512 7z" />
    <glyph glyph-name="uniE641" unicode="&#xe641;" 
d="M516 54q-88 0 -162.5 43.5t-118 118t-43.5 162.5t43.5 163t118 118t162.5 43t163 -43t118.5 -118t43.5 -163t-43.5 -162.5t-118.5 -118t-163 -43.5zM516.5 626q-102.5 0 -175 -73t-72.5 -175t72.5 -174.5t175 -72.5t175 72.5t72.5 174.5t-72.5 175t-175 73zM358 -120
q-112 36 -199.5 118.5t-129.5 193.5q-6 16 -11 32l39 12q4 -15 10 -30q39 -102 119.5 -178t184.5 -109zM666 -124l-11 39q113 33 198.5 115.5t122.5 194.5l39 -13q-41 -122 -133.5 -211t-215.5 -125zM980 522q-36 116 -122.5 201t-202.5 119l11 39q127 -37 220.5 -129
t132.5 -218zM56 518l-39 12q36 121 124.5 212.5t207.5 132.5l13 -39q-110 -38 -191 -122t-115 -196z" />
    <glyph glyph-name="uniE65E" unicode="&#xe65e;" 
d="M512 -212q-94 0 -179.5 36.5t-147.5 98.5t-98.5 147.5t-36.5 179.5q0 129 67 239t182 170q10 6 21.5 2.5t17 -14t2 -22t-14.5 -16.5q-100 -53 -158.5 -149.5t-58.5 -209.5q0 -110 54 -203t147 -147.5t203 -54.5t203 54.5t147 147.5t54 203q0 116 -60.5 213.5
t-164.5 149.5q-11 5 -15 16t1.5 22t16.5 14.5t22 -1.5q119 -59 188.5 -170t69.5 -244q0 -94 -36.5 -179.5t-98.5 -147.5t-147.5 -98.5t-179.5 -36.5zM512 263q-12 0 -20.5 8.5t-8.5 20.5v491q0 12 8.5 20.5t20.5 8.5t20.5 -8.5t8.5 -20.5v-491q0 -12 -8.5 -20.5t-20.5 -8.5z
" />
    <glyph glyph-name="uniE668" unicode="&#xe668;" 
d="M0 -26h1024v-102h-1024v102zM77 417h174v-545h-174v545zM309 607h174v-735h-174v735zM541 -46v942h174v-942h-174zM773 494h174v-622h-174v622z" />
    <glyph glyph-name="uniE66A" unicode="&#xe66a;" 
d="M941 467q0 116 -57.5 215t-156 156.5t-215.5 57.5t-215.5 -57.5t-156 -156.5t-57.5 -215q0 -120 60.5 -220t161.5 -156l-89 -219h592l-89 219q101 56 161.5 156t60.5 220zM372 -58l19 111h6q13 -3 27 -6q15 -3 32 -6q2 0 5.5 -0.5t4.5 -0.5q21 -2 41 -2h3h2v0h3h3
q15 0 27 1h1q12 1 22 2q17 3 32 6q14 3 27 6v0h6l19 -111h-280zM512 160q-127 0 -217 90t-90 217t90 217t217 90t217 -90t90 -217t-90 -217t-217 -90zM512 393zM358 393q0 64 45 109t109 45t109 -45t45 -109t-45 -109t-109 -45t-109 45t-45 109z" />
    <glyph glyph-name="uniE66C" unicode="&#xe66c;" 
d="M1024 262v244h-116q-11 37 -30 72l82 82l-172 172l-82 -82q-35 19 -72 30v116h-244v-116q-37 -11 -72 -30l-82 82l-172 -172l82 -82q-19 -35 -30 -72h-116v-244h116q11 -37 30 -72l-82 -82l172 -172l82 82q35 -19 72 -30v-116h244v116q37 11 72 30l82 -82l172 172l-82 82
q19 35 30 72h116zM512 179q-85 0 -145 60t-60 145t60 145t145 60t145 -60t60 -145t-60 -145t-145 -60z" />
    <glyph glyph-name="uniE675" unicode="&#xe675;" 
d="M952 119h-880l-72 -163h1024zM816.5 681q-8.5 6 -19 4.5t-16.5 -10.5l-165 -229l-248 36q-12 2 -20 -6l-150 -137q-8 -7 -8.5 -17.5t6.5 -18.5q8 -9 19 -9q10 0 17 7l141 129l250 -37q16 -2 25 11l174 242q6 8 4.5 18.5t-10 16.5zM947 671q0 53 -37.5 90.5t-90.5 37.5
h-614q-53 0 -90.5 -37.5t-37.5 -90.5v-519l870 3v516zM896 206l-768 -2v467q0 31 22.5 54t54.5 23h614q32 0 54.5 -23t22.5 -54v-465z" />
    <glyph glyph-name="uniE676" unicode="&#xe676;" 
d="M512 855q105 0 194.5 -52t141.5 -141.5t52 -194.5q0 -106 -54 -197.5t-147 -142.5l-32 -18l14 -34l66 -162h-49l-6 36l-19 111l-6 34h-34h-6h-9l-5 -2q-11 -3 -21 -5q-14 -3 -28 -5h-1q-9 -1 -19 -2h-2q-11 -1 -25 -1h-4h-1h-4q-18 0 -38 2h-3h-1q-3 1 -4 1h-1
q-15 2 -28 5q-13 2 -25 6l-6 1h-5h-6h-34l-6 -34l-19 -111l-6 -36h-49l66 162l14 34l-32 18q-93 51 -147 142.5t-54 197.5q0 105 52 194.5t141.5 141.5t194.5 52zM512 119q94 0 174.5 46.5t127 126.5t46.5 174.5t-46.5 175t-127 127t-174.5 46.5t-174.5 -46.5t-127 -127
t-46.5 -175t46.5 -174.5t127 -126.5t174.5 -46.5zM512 896q-117 0 -215.5 -57.5t-156 -156.5t-57.5 -215q0 -120 60.5 -220t161.5 -156l-89 -219h592l-89 219q101 56 161.5 156t60.5 220q0 116 -57.5 215t-156 156.5t-215.5 57.5zM512 160q-127 0 -217 90t-90 217t90 217
t217 90t217 -90t90 -217t-90 -217t-217 -90zM372 -58l19 111h6q13 -3 27 -6q15 -3 32 -6q2 0 5.5 -0.5t4.5 -0.5q21 -2 41 -2h3h2h3h3q15 0 27 1h1q12 1 22 2q17 3 32 6q14 3 27 6v0h6l19 -111h-280zM512 506q47 0 80 -33t33 -80t-33 -80t-80 -33t-80 33t-33 80t33 80t80 33
zM512 547q-64 0 -109 -45t-45 -109t45 -109t109 -45t109 45t45 109t-45 109t-109 45z" />
    <glyph glyph-name="uniE677" unicode="&#xe677;" 
d="M176 49q-10 1 -18 -6.5t-8 -18t7.5 -18.5t17.5 -8h43l-7 51h-35zM228 -2q25 0 61 -1v52h-68zM468 -3q132 2 214 6v51q-81 -4 -214 -5v-52zM898 209q-22 19 -55.5 29t-64.5 12.5t-82 -2t-82 -8.5t-90 -14q-250 -40 -294 -7q-10 7 -12 20q-3 20 12 39q35 46 182 89
q50 -80 100 -130q71 70 131 181q84 15 176 26q47 6 68.5 27.5t20.5 47.5q-1 37 -44 66.5t-120 33.5q-2 1 -9 1q-2 -12 -5 -27l-6 -24q10 0 17 -1q37 -2 65 -11.5t39.5 -20t11.5 -18.5q0 -7 -11.5 -14t-32.5 -9q-75 -9 -142 -20q22 51 34 96q9 31 10 50q2 14 2 26
q0 85 -60 145t-145 60t-145 -60t-60 -145q0 -91 78 -234q-151 -46 -195 -104q-28 -36 -22 -77q4 -34 31 -54q62 -46 333 -2q66 10 101.5 14.5t88.5 8.5t87.5 -3.5t54.5 -25.5q36 -32 30 -53q-5 -16 -35.5 -32t-87.5 -24q-20 -3 -53 -5v-51q38 2 61 5q69 11 111.5 34.5
t52.5 58.5q15 52 -45 106zM358 646.5q0 63.5 45 108.5t109 45t109 -45t45 -108.5t-45 -108.5t-109 -45t-109 45t-45 108.5zM302 48v-51h65h63v51h-128z" />
    <glyph glyph-name="uniE678" unicode="&#xe678;" 
d="M514 386q105 1 179 75.5t74 179.5q0 106 -74.5 180.5t-180.5 74.5t-180.5 -74.5t-74.5 -180.5q0 -105 74 -179.5t179 -75.5q-103 -1 -197.5 -41.5t-162.5 -108.5t-108 -162.5t-40 -197.5v-2v-2h1020v2v2q0 103 -40 197.5t-108 162.5t-162.5 108.5t-197.5 41.5z" />
    <glyph glyph-name="uniE679" unicode="&#xe679;" 
d="M722 -116h-421v104h33q15 0 29 6t22 13t15 16.5t9 14t3 7.5l6 16h-238q-48 0 -82 34.5t-34 82.5v424q0 48 34 82.5t82 34.5h663q48 0 81.5 -34.5t33.5 -82.5v-424q0 -48 -33.5 -82.5t-81.5 -34.5h-238l5 -16q2 -3 4 -7.5t8.5 -14t15 -16.5t22 -13t29.5 -6h33v-104z
M416 -52h191q-15 11 -28 26q-11 12 -20 28h-95q-9 -15 -20 -28q-13 -15 -28 -26zM180 654q-21 0 -36 -15.5t-15 -36.5v-424q0 -21 15 -36.5t36 -15.5h663q21 0 36 15.5t15 36.5v424q0 21 -15 36.5t-36 15.5h-663zM654 201l-143 142l-142 -142l-46 46l142 142l-142 142l46 46
l142 -142l143 142l46 -46l-143 -142l143 -142z" />
    <glyph glyph-name="uniE67A" unicode="&#xe67a;" 
d="M990 256h-240q-53 0 -90.5 37.5t-37.5 90.5t37.5 90.5t90.5 37.5h240v-51h-240q-32 0 -54.5 -22.5t-22.5 -54.5t22.5 -54.5t54.5 -22.5h240v-51zM762 384zM704 384q0 24 17 41t40.5 17t40.5 -17t17 -41t-17 -41t-40.5 -17t-40.5 17t-17 41zM819 845q64 0 109 -45t45 -109
v-614q0 -64 -45 -109t-109 -45h-614q-64 0 -109 45t-45 109v614q0 64 45 109t109 45h614zM819 896h-614q-85 0 -145 -60t-60 -145v-614q0 -85 60 -145t145 -60h614q85 0 145 60t60 145v614q0 85 -60 145t-145 60z" />
    <glyph glyph-name="uniE67C" unicode="&#xe67c;" 
d="M589 -68h-525q14 109 76 199.5t159.5 142.5t209.5 52v119q-80 1 -137 58.5t-57 137.5q0 81 57.5 138.5t138.5 57.5t138.5 -57.5t57.5 -138.5q0 -80 -57 -137.5t-138 -58.5l1 -119q97 0 185 -41q28 22 59 38q-114 62 -244 63q105 1 179 75.5t74 179.5q0 106 -74.5 180.5
t-180.5 74.5t-180.5 -74.5t-74.5 -180.5q0 -105 74 -179.5t179 -75.5q-103 0 -197.5 -40.5t-162.5 -109t-108 -163t-40 -197.5v-2v-2h591q-3 26 -3 51v5v4zM1023 11v114h-45q-2 5 -4 9l32 32l-81 81l-31 -32l-10 4v45h-114v-45l-10 -4l-32 32l-80 -81l32 -32q-2 -4 -4 -9
h-45v-114h45l4 -10l-32 -32l81 -80l31 32l10 -4v-45h114v45l10 4l31 -32l81 80l-32 32l4 10h45zM968 -31l-43 -42l-26 26l-9 -4q-11 -6 -23 -10l-10 -3v-38h-60v38l-10 3q-12 4 -23 10l-9 5l-27 -27l-42 42l27 27l-5 9q-6 11 -10 23l-3 10h-38v60h38l3 10q4 12 10 23l5 9
l-27 26l42 43l27 -27l9 5q11 6 23 10l10 3v37h60v-37l10 -3q12 -4 23 -10l9 -5l26 27l43 -43l-27 -26l5 -9q6 -11 10 -23l3 -10h37v-60h-37l-3 -10q-4 -12 -10 -23l-5 -9zM827 154q-36 0 -61 -25t-25 -61t25 -61t61 -25t61 25t25 61t-25 61t-61 25zM827 8q-25 0 -42.5 17.5
t-17.5 42.5t17.5 42.5t42.5 17.5t42.5 -17.5t17.5 -42.5t-17.5 -42.5t-42.5 -17.5z" />
    <glyph glyph-name="uniE67D" unicode="&#xe67d;" 
d="M144 896h103v-537h-103v537zM144 52h103v-180h-103v180zM463 438h102v-566h-102v566zM463 896h102v-151h-102v151zM771 49h102v-177h-102v177zM771 896h102v-540h-102v540zM3 334v-256h383h2v256h-2h-383zM672 463h38v256h-38h-3h-342v-256h342h3zM1021 330h-383v-256
h383h3v256h-3z" />
    <glyph glyph-name="uniE682" unicode="&#xe682;" 
d="M605 390q0 36 -22 63.5t-55 35.5v104v52v90h-51v-90q-98 -10 -164.5 -83t-66.5 -172q0 -106 75 -181t181 -75q92 0 163 58l-20 20l97 -97l36 37l-188 186q15 25 15 52zM628 229q-56 -44 -126 -44q-85 0 -145 60t-60 145q0 78 51.5 136t128.5 67v-104q-34 -8 -55.5 -35.5
t-21.5 -63.5q0 -42 30 -72t72 -30q28 0 52 14zM512 896q-139 0 -257 -68.5t-186.5 -186.5t-68.5 -257t68.5 -257t186.5 -186.5t257 -68.5t257 68.5t186.5 186.5t68.5 257t-68.5 257t-186.5 186.5t-257 68.5zM512 26q-97 0 -179.5 48t-130.5 130.5t-48 179.5t48 179.5
t130.5 130.5t179.5 48t179.5 -48t130.5 -130.5t48 -179.5t-48 -179.5t-130.5 -130.5t-179.5 -48z" />
    <glyph glyph-name="uniE684" unicode="&#xe684;" 
d="M822 515l1 -1v-1l1 -1l1 -1v-1l1 -1l1 -1v-1l1 -1l1 -1v-1l1 -1l1 -1v-1l1 -2l1 -1l1 -1l1 -1v-1l1 -1l1 -1v-1l1 -1l1 -1v-1l1 -1l1 -1v-1l1 -1l1 -1v-1l1 -1h1q4 7 12.5 21t14.5 21q3 5 10 15t11 15.5t8.5 15t7.5 18.5q11 39 -11 65.5t-61 25.5l-10 -2
q-20 -6 -31 -19.5t-15 -23.5q-13 -33 7 -67q5 -7 16.5 -24.5t17.5 -27.5zM811 618q3 8 8 13t8.5 6.5t14.5 5.5q22 1 32 -16t1.5 -35.5t-28.5 -21.5q-17 -2 -29 14.5t-7 33.5zM811 618zM315 233q3 4 15.5 21.5t17 24t13 21t14 27t10.5 27.5q27 86 -19 148t-131 61
q-5 -2 -16 -3t-15 -2q-43 -14 -67 -43q-25 -31 -34 -56q-13 -42 -7.5 -77t24.5 -66q44 -73 80 -124q25 -38 45 -66q0 -1 1 -1h1q5 9 15 24.5t12 20.5q33 53 41 63zM171 427q12 37 48 51q3 2 11 3t12 2q40 1 65 -33.5t10 -75.5q-18 -45 -65 -52q-38 -6 -65.5 30t-15.5 75z
M171 427zM861 272q-12 8 -115 75q-25 17 -39 27q-12 7 -38 21t-40 22q-3 1 -13.5 6.5t-16.5 10t-11 9.5h-1q28 6 82 11.5t78 9.5q16 2 44.5 5t39.5 4v1q-16 22 -22 25q-12 -1 -22 -2q-4 0 -76 -4q-9 -2 -29.5 -2t-30.5 -2q-30 -3 -88.5 -8.5t-88.5 -7.5q7 -6 36 -27.5
t44 -33.5q12 -9 42 -26t44 -28q16 -12 51 -39.5t55 -42.5l1 -1q-42 -3 -127 -8.5t-127 -7.5q-21 -1 -51 -3q-9 -1 -29 -3.5t-31 -4.5q-5 0 -15 -1.5t-13 -2.5q-10 -17 -83 -139v-1l-1 -1q47 11 143 29t144 29q30 5 154 27q33 6 107 18.5t113 19.5q-69 46 -70 46zM861 272z
" />
    <glyph glyph-name="uniE685" unicode="&#xe685;" 
d="M922 896h-820q-42 0 -72 -30t-30 -72v-820v-8q98 41 230.5 64t281.5 23t281.5 -23t230.5 -64v8v820q0 42 -30 72t-72 30zM922 218h-820v103h820v-103zM922 425h-820v102h820v-102zM922 631h-820v103h820v-103z" />
    <glyph glyph-name="uniE689" unicode="&#xe689;" 
d="M0 374l275 227l268 -51l183 223l-88 26l386 52l-387 -529l-302 72l-335 -281v261zM336 289l-336 -289v-26q0 -42 30 -72t72 -30h820q42 0 72 30t30 72v759l-369 -516z" />
    <glyph glyph-name="uniE68D" unicode="&#xe68d;" 
d="M512 896q-139 0 -257 -68.5t-186.5 -186.5t-68.5 -257t68.5 -257t186.5 -186.5t257 -68.5t257 68.5t186.5 186.5t68.5 257t-68.5 257t-186.5 186.5t-257 68.5zM870 333h-234l166 -166q15 -15 15 -36.5t-15 -36.5t-36.5 -15t-36.5 15l-166 166v-234q0 -22 -15 -37t-36 -15
t-36 15t-15 37v234l-166 -166q-15 -15 -36.5 -15t-36.5 15t-15 36.5t15 36.5l166 166h-234q-22 0 -37 15t-15 36t15 36t37 15h234l-166 166q-15 15 -15 36.5t15 36.5t36.5 15t36.5 -15l166 -166v234q0 22 15 37t36 15t36 -15t15 -37v-234l166 166q15 15 36.5 15t36.5 -15
t15 -36.5t-15 -36.5l-166 -166h234q22 0 37 -15t15 -36t-15 -36t-37 -15z" />
    <glyph glyph-name="uniE68F" unicode="&#xe68f;" 
d="M512 896q-139 0 -257 -68.5t-186.5 -186.5t-68.5 -257t68.5 -257t186.5 -186.5t257 -68.5t257 68.5t186.5 186.5t68.5 257t-68.5 257t-186.5 186.5t-257 68.5zM512 -77q-94 0 -179 36.5t-147 98.5t-98.5 147t-36.5 179t36.5 179t98.5 147t147 98.5t179 36.5t179 -36.5
t147 -98.5t98.5 -147t36.5 -179t-36.5 -179t-98.5 -147t-147 -98.5t-179 -36.5zM338 138l-8 62h489v51h-614zM205 410h614v-52h-614v52zM708 568h-503v-51h614l-112 113z" />
    <glyph glyph-name="uniE692" unicode="&#xe692;" 
d="M0 691h1024v-51h-1024v51zM922 896h-820q-42 0 -72 -30t-30 -72v-768q0 -43 30 -73t72 -30h131l111 -51l130 51h448q42 0 72 30t30 73v768q0 42 -30 72t-72 30zM973 67q0 -39 -27 -66t-65 -27h-404l-131 -51l-111 51h-92q-38 0 -65 27t-27 66v686q0 38 27 65t65 27h738
q38 0 65 -27t27 -65v-686zM525 615h-23q-94 0 -153 -41t-59 -124v-176h-1l1 -113v-55v-1q0 -4 -1.5 -10.5t-13 -22t-30.5 -25.5l22 -42q20 11 34 25t21 25.5t10.5 24t4 17.5t0.5 8v56v94q87 -22 174 -22t179 22l1 -94v-55v-1q0 -4 -1.5 -11t-13 -22t-30.5 -25l22 -42
q20 11 34 25t21 25.5t10.5 24t4 17.5t0.5 8v56v289q0 83 -59 124t-154 41zM486 390q-90 3 -149 25v35q0 118 165 118h23q166 0 166 -118v-35q-63 -23 -158 -25v110q0 10 -7 17t-16.5 7t-16.5 -7t-7 -17v-110zM486 281q-77 3 -149 23v62q62 -20 149 -23v-62zM533 281v61
q91 2 158 23v-61q-79 -20 -158 -23zM557 170q13 0 22.5 -9t9.5 -22t-9.5 -22.5t-22.5 -9.5h-95q-13 0 -22 9.5t-9 22.5t9 22t22 9h95zM557 217h-95q-33 0 -56 -23t-23 -55.5t23 -55.5t56 -23h95q33 0 56 23t23 55.5t-23 55.5t-56 23z" />
    <glyph glyph-name="uniE693" unicode="&#xe693;" 
d="M0 691h1024v-51h-1024v51zM922 896h-820q-42 0 -72 -30t-30 -72v-768q0 -43 30 -73t72 -30h131l111 -51l130 51h448q42 0 72 30t30 73v768q0 42 -30 72t-72 30zM973 67q0 -39 -27 -66t-65 -27h-404l-131 -51l-111 51h-92q-38 0 -65 27t-27 66v686q0 38 27 65t65 27h738
q38 0 65 -27t27 -65v-686zM511 235q88 0 181 22v-95v-56v0q0 -4 -1.5 -11t-12.5 -22t-31 -26l23 -42q19 11 33.5 25t21 26t10.5 24.5t4.5 17.5t0.5 8v56v292q0 83 -59.5 124.5t-154.5 41.5h-24q-95 0 -154.5 -41.5t-59.5 -124.5v-178v-114v-56v0q0 -4 -1.5 -11t-12.5 -22
t-31 -26l22 -42q20 11 34.5 25t21 26t10.5 24.5t4.5 17.5t0.5 8v56v95q87 -22 175 -22zM336 454q0 118 166 118h24q166 0 166 -118v-36q-63 -23 -158 -25h-48q-91 3 -150 26v35zM336 368q62 -20 150 -22l48 -1q91 2 158 23v-61q-79 -21 -158 -24h-48q-78 3 -150 24v61z" />
    <glyph glyph-name="uniE695" unicode="&#xe695;" 
d="M511 896q-54 -37 -126.5 -67t-137.5 -47.5t-122 -29t-91 -16.5l-34 -4q0 -7 0.5 -20.5t6 -56t14 -85.5t27 -105.5t43.5 -121t65.5 -126t89.5 -126.5t119 -117t152 -102q102 62 185.5 143.5t134.5 159t89.5 163.5t56 150t28 126.5t12 85t1.5 32.5q-13 1 -35 4t-86.5 15.5
t-124.5 29t-135.5 47.5t-131.5 68zM516 -69q-281 163 -400 488q-48 133 -62 269q283 43 457 147q180 -106 459 -147q-14 -130 -61 -259q-117 -320 -393 -498zM524 653h-24q-88 0 -151 -63t-63 -151v-110q0 -88 63 -151t151 -63h24q88 0 151 63t63 151v110q0 88 -63 151
t-151 63zM524 163h-24q-69 0 -117.5 48.5t-48.5 117.5v24q74 -23 181 -23q102 0 175 23v-24q0 -69 -48.5 -117.5t-117.5 -48.5zM690 403q-69 -25 -175 -25q-112 0 -181 26v35q0 69 48.5 117.5t117.5 48.5h24q69 0 117.5 -48.5t48.5 -117.5v-36z" />
    <glyph glyph-name="uniE696" unicode="&#xe696;" 
d="M869 811h-715q-37 0 -63.5 -26.5t-26.5 -64.5v-456q0 -38 26.5 -65t63.5 -27h715q37 0 63 27t26 65v456q0 38 -26 64.5t-63 26.5zM705 366l-68 -68l-126 126l-126 -126l-67 68l125 126l-125 126l67 67l126 -125l126 125l68 -67l-126 -126zM585 109h-147q-2 -4 -4.5 -9.5
t-12 -20.5t-22 -26t-34 -20.5t-45.5 -9.5v-42h383v42q-25 0 -46.5 9t-34 21.5t-21.5 25.5t-12.5 21t-3.5 9z" />
    <glyph glyph-name="uniE697" unicode="&#xe697;" 
d="M511 896q-54 -37 -126.5 -67t-137.5 -47.5t-122 -29t-91 -16.5l-34 -4q0 -7 0.5 -20.5t6 -56t14 -85.5t27 -105.5t43.5 -121t65.5 -126t89.5 -126.5t119 -117t152 -102q102 62 185.5 143.5t134.5 159t89.5 163.5t56 150t28 126.5t12 85t1.5 32.5q-13 1 -35 4t-86.5 15.5
t-124.5 29t-135.5 47.5t-131.5 68zM516 -69q-281 163 -400 488q-48 133 -62 269q283 43 457 147q180 -106 459 -147q-14 -130 -61 -259q-117 -320 -393 -498zM532 357q88 0 180 23l1 -96v-55v0q0 -5 -1.5 -11.5t-13 -22t-30.5 -25.5l22 -42q20 10 34.5 24.5t21 26t10 24.5
t4 18t0.5 8v55v292q0 84 -59.5 125t-154.5 41h-24q-95 0 -154 -41t-59 -125v-178h-1l1 -114v-55v0q0 -5 -1.5 -11.5t-13 -22t-30.5 -25.5l22 -42q20 10 34.5 24.5t21 26t10 24.5t4 18t0.5 8v55v96q88 -23 176 -23zM356 576q0 119 166 119h24q167 0 167 -119v-35
q-64 -24 -159 -26l-47 1q-92 3 -151 25v35zM356 491q63 -20 151 -23h47q92 2 159 22v-61q-80 -21 -159 -24h-47q-78 4 -151 24v62z" />
    <glyph glyph-name="uniE69E" unicode="&#xe69e;" 
d="M880 395q-3 117 -50.5 196.5t-114.5 79.5q-25 0 -49 -13q-24 14 -51 14q-28 0 -54 -15q-25 14 -52 14q-26 0 -51 -14q-24 14 -50 14q-27 0 -52 -14q-25 14 -51 14q-66 0 -113 -76v234q0 10 -7.5 17.5t-18 7.5t-18 -7.5t-7.5 -17.5v-409q-2 -19 -2 -37q0 -121 48 -204.5
t118 -83.5q26 0 51 14q25 -14 52 -14q26 0 50 13q25 -13 51 -13q28 0 54 15q25 -14 52 -14q25 0 49 12q24 -13 51 -13q66 0 114 78v-214q0 -11 7.5 -18.5t18 -7.5t18 7.5t7.5 18.5v243v189v4zM305 146q-43 0 -78.5 68.5t-35.5 168.5v3v4q1 4 1 7v19q6 88 40 146t73 58
q2 0 7 -1q-32 -40 -50.5 -101.5t-18.5 -134.5t18.5 -135t50.5 -101q-5 -1 -7 -1zM408 146q-43 0 -78.5 68.5t-35.5 168.5q0 68 17.5 123t44.5 85l4 4l4 4q3 3 6 5q2 2 4 3q4 3 7 5q2 1 3 1q5 3 10 4h1q3 1 5 2q5 1 8 1l5 -1q-32 -40 -50.5 -101.5t-18.5 -134.5t18.5 -135
t50.5 -101zM520 147q-6 -1 -11 -1q-43 0 -78.5 68.5t-35.5 168.5q0 68 18 123.5t45 85.5l1 1l1 1l7 7l1 1q1 0 1 1q3 2 7 5q3 2 4.5 2.5t4.5 2.5q4 2 7 3q6 2 11 3l6 1q4 0 9 -2q-31 -39 -49.5 -100.5t-18.5 -133.5q0 -73 19 -135t51 -102zM615 147q-43 0 -78.5 68.5
t-35.5 168.5q0 67 17 121t44 85q7 9 15 15q3 3 6 4q1 2 4 3q4 2 7 4l3 1q4 2 7 2q6 2 11 2q2 0 5 -1q-33 -39 -51.5 -101.5t-18.5 -135.5t18 -134.5t50 -101.5h-1h-2zM715 146h-4h-1h-1l1 1l1 1q-24 2 -46 25h-1q-28 30 -45.5 85.5t-17.5 124.5q0 100 35.5 168.5t78 68.5
t78.5 -68.5t36 -168.5t-36 -168.5t-78 -68.5z" />
    <glyph glyph-name="uniE69F" unicode="&#xe69f;" horiz-adv-x="1037" 
d="M688 200q-38 0 -66.5 -24.5t-34.5 -60.5h-177q-6 36 -34.5 60.5t-66.5 24.5q-43 0 -72.5 -30t-29.5 -72.5t29.5 -72.5t72.5 -30q34 0 60.5 20t36.5 51h184q10 -31 37 -51t61 -20q42 0 72 30t30 72.5t-30 72.5t-72 30zM309 46q-21 0 -36 15t-15 36t15 36t36 15t36 -15
t15 -36t-15 -36t-36 -15zM688 46q-21 0 -36 15t-15 36t15 36t36 15t36 -15t15 -36t-15 -36t-36 -15zM1011 748h-804q-11 0 -18.5 -7.5t-7.5 -18.5v-128l-169 -252q-4 -7 -4 -14v-238q0 -10 7.5 -17.5t18 -7.5t18 7.5t7.5 17.5v230l169 252q4 6 4 14v110h754v-580h-126
q-10 0 -17.5 -7.5t-7.5 -18t7.5 -18t17.5 -7.5h151q11 0 18.5 7.5t7.5 17.5v632q0 11 -7.5 18.5t-18.5 7.5zM504 602q0 11 -7.5 18t-18 7t-17.5 -7t-7 -18v-207h-202q-10 0 -17.5 -7.5t-7.5 -17.5t7.5 -17.5t17.5 -7.5h227q10 0 17.5 7.5t7.5 17.5l-1 3q1 2 1 3v226z" />
    <glyph glyph-name="uniE6A4" unicode="&#xe6a4;" horiz-adv-x="1030" 
d="M365 110q0 21 -15 36t-36 15t-36 -15t-15 -36q0 -17 10 -31h82q10 14 10 31zM744 110q0 21 -15 36t-36 15t-36 -15t-15 -36q0 -17 10 -31h82q10 14 10 31zM693 59q-25 0 -41 20h-297q-16 -20 -41 -20t-41 20h-57q10 -31 37 -51t61 -20t60.5 19.5t37.5 51.5h183
q11 -32 37.5 -51.5t60.5 -19.5t61 20t37 51h-57q-16 -20 -41 -20zM1004 760h-805q-11 0 -18.5 -7.5t-7.5 -17.5v-128l-169 -252q-4 -7 -4 -15v-237q0 -11 7.5 -18.5t18.5 -7.5q5 0 9 2h181q-4 15 -4 31q0 42 30 72t72 30q38 0 66.5 -24t34.5 -61h177q6 37 34.5 61t66.5 24
q42 0 72 -30t30 -72q0 -16 -4 -31h52q5 -2 9 -2h152q10 0 17.5 7.5t7.5 18.5v632q0 10 -7.5 17.5t-17.5 7.5zM509 388v-2v-3q0 -11 -7.5 -18t-17.5 -7h-227q-10 0 -17.5 7t-7.5 17.5t7.5 18t17.5 7.5h202v207q0 10 7 17.5t17.5 7.5t18 -7.5t7.5 -17.5v-227z" />
    <glyph glyph-name="uniE6A6" unicode="&#xe6a6;" 
d="M991 427l-397 423q-34 36 -82 36t-82 -36l-397 -423q-34 -36 -23 -61.5t61 -25.5h71v-366q0 -42 30 -72t73 -30h534q42 0 72 30t30 72v366h72q50 0 61 25.5t-23 61.5zM690 342v-127h-173v127h173zM334 342h173v-127h-173v127zM334 205h173v-127h-173v127zM690 78h-173
v127h173v-127z" />
    <glyph glyph-name="uniE6A8" unicode="&#xe6a8;" 
d="M670 118l150 -150l108 108l-150 150q-22 -32 -49 -59t-59 -49zM432 464zM33 463.5q0 108.5 53.5 200.5t145.5 145.5t200.5 53.5t200.5 -53.5t145.5 -145.5t53.5 -200.5t-53.5 -200.5t-145.5 -145.5t-200.5 -53.5t-200.5 53.5t-145.5 145.5t-53.5 200.5z" />
    <glyph glyph-name="uniE6AB" unicode="&#xe6ab;" 
d="M1024 305l-512 591l-512 -591h253q-10 -82 -40 -156.5t-64.5 -122.5t-69.5 -84.5t-56 -53t-23 -16.5h1024q-5 2 -13.5 6.5t-34 21.5t-48.5 38t-52.5 57.5t-52.5 78.5t-41.5 102.5t-24.5 128.5h267z" />
    <glyph glyph-name="uniE6AC" unicode="&#xe6ac;" horiz-adv-x="1025" 
d="M961 -77l-50 86q86 66 107.5 173.5t-33.5 204.5q-55 95 -159.5 130.5t-204.5 -5.5v282h-51v-308q-97 -64 -124.5 -177.5t30.5 -215.5q35 -61 94 -99v-71h-142v666h-51v-666h-141v461h-52v-461h-184v-51h184h52h141h51h142h51h142h51h210v51h-63zM763 -77h-142v45
q69 -28 142 -20v-25zM814 -77v35q14 5 26 10l26 -45h-52zM852 30q-18 -10 -38 -18l-12 -4h-1q-5 -2 -12 -3h-1q-6 -2 -12 -3h-1q-6 -2 -12 -2q-74 -10 -142 24q-7 3 -13 7q-20 12 -38 27q-30 27 -49 61q-44 76 -29.5 161t78.5 141q9 8 19 15q10 8 20 14l12 6q67 34 142 24
l12 -2h1q6 -1 12 -3h2q5 -2 10 -3l2 -1l12 -4q83 -30 126 -106q51 -87 24.5 -184t-112.5 -147z" />
    <glyph glyph-name="uniE6AD" unicode="&#xe6ad;" 
d="M0 415h481v481h-481v-481zM51 845h379v-379h-379v379zM543 896v-481h481v481h-481zM973 466h-379v379h379v-379zM0 -128h481v481h-481v-481zM51 302h379v-379h-379v379zM543 -128h481v481h-481v-481zM594 302h379v-379h-379v379z" />
    <glyph glyph-name="uniE6B0" unicode="&#xe6b0;" 
d="M1011 496q-2 9 -10.5 14.5t-18.5 3.5t-15 -10.5t-3 -18.5q11 -50 11 -101q0 -94 -37 -179.5t-99 -147.5t-147.5 -99t-179.5 -37t-179.5 37t-147.5 99t-99 147.5t-37 179.5t37 179.5t99 147.5t147.5 99t179.5 37q46 0 90 -9q10 -2 18.5 3.5t10 15.5t-4 18.5t-15.5 10.5
q-49 10 -99 10q-104 0 -198.5 -41t-163 -109.5t-109.5 -163t-41 -198.5t41 -198.5t109.5 -163t163 -109.5t198.5 -41t198.5 41t163 109.5t109.5 163t41 198.5q0 57 -13 112zM642 637q-43 17 -89 17q-103 0 -176 -73t-73 -177q0 -45 16 -88l-64 -64q-27 -27 -27 -66
t27.5 -66.5t66 -27.5t66.5 28l59 59q50 -24 105 -24q103 0 176 73t73 177q0 55 -23 105l-134 -134q-28 -28 -66.5 -28t-66 27.5t-27.5 66.5t27 66zM476.5 339.5q42.5 -42.5 102.5 -42.5t102 42l70 70v-5q0 -81 -58 -139.5t-140 -58.5q-44 0 -84 19l-32 15l-25 -25l-59 -59
q-13 -13 -30.5 -13t-30 12.5t-12.5 30t13 30.5l63 64l24 23l-12 31q-13 34 -13 70q0 77 51.5 133.5t126.5 63.5l-57 -57q-42 -42 -42 -102t42.5 -102.5z" />
    <glyph glyph-name="uniE6B2" unicode="&#xe6b2;" 
d="M1011 496q-2 9 -10.5 14.5t-18.5 3.5t-15 -10.5t-3 -18.5q11 -50 11 -101q0 -94 -37 -179.5t-99 -147.5t-147.5 -99t-179.5 -37t-179.5 37t-147.5 99t-99 147.5t-37 179.5t37 179.5t99 147.5t147.5 99t179.5 37q46 0 90 -9q10 -2 18.5 3.5t10 15.5t-4 18.5t-15.5 10.5
q-49 10 -99 10q-104 0 -198.5 -41t-163 -109.5t-109.5 -163t-41 -198.5t41 -198.5t109.5 -163t163 -109.5t198.5 -41t198.5 41t163 109.5t109.5 163t41 198.5q0 57 -13 112zM645 599h-266q-21 0 -36 -15t-15 -37v-409q0 -21 15 -36t36 -15h266q21 0 36 15t15 36v409
q0 22 -15 37t-36 15zM413 107h-16h-38h-3q-8 0 -8 8v3v60v24q0 4 3 7t8 3l65 -94q0 -5 -3 -8t-8 -3zM658 365q0 -9 -6.5 -15t-15.5 -6l-133 192q0 9 6.5 15.5t15.5 6.5h111q9 0 15.5 -6.5t6.5 -15.5v-171zM363 630h67q7 0 12 7.5t5 18t-5 18t-12 7.5h-67q-8 0 -13 -7.5
t-5 -18t5 -18t13 -7.5z" />
    <glyph glyph-name="uniE6B3" unicode="&#xe6b3;" 
d="M922 896h-820q-42 0 -72 -30t-30 -72v-820q0 -42 30 -72t72 -30h820q42 0 72 30t30 72v820q0 42 -30 72t-72 30zM973 -26q0 -21 -15 -36t-36 -15h-820q-21 0 -36 15t-15 36v820q0 21 15 36t36 15h820q21 0 36 -15t15 -36v-820zM758 672h-492q-25 0 -43 -16.5t-18 -40.5
v-462q0 -24 18 -40.5t43 -16.5h492q25 0 43 16.5t18 40.5v462q0 24 -18 40.5t-43 16.5zM266 621h492q10 0 10 -6v-91h-512v91q0 6 10 6zM758 147h-492q-10 0 -10 6v320h512v-320q0 -6 -10 -6zM297 350h205v-51h-205v51z" />
    <glyph glyph-name="uniE6B4" unicode="&#xe6b4;" horiz-adv-x="1025" 
d="M898 896h-798q-42 0 -71 -29t-29 -71v-798q0 -41 29 -70.5t71 -29.5h630v50h-1h-629q-21 0 -35.5 14.5t-14.5 35.5v798q0 21 14.5 35.5t35.5 14.5h798q21 0 35.5 -14.5t14.5 -35.5v-610v-20v-17q0 7 1 17h49v630q0 42 -29.5 71t-70.5 29zM738 678h-479q-24 0 -41.5 -16.5
t-17.5 -39.5v-450q0 -23 17.5 -39.5t41.5 -16.5h257l-4 22v2v2q-1 5 -1 9q-1 8 -1 15h-251q-10 0 -10 6v312h499v-98q1 0 8 -1q5 0 9 -1l20 -4h1v-1q6 -1 12 -3v246q0 23 -17.5 39.5t-42.5 16.5zM748 533h-499v89q0 6 10 6h479q10 0 10 -6v-89zM289 364h200v-50h-200v50z
M946 7q59 79 52 179.5t-78 171.5q-79 79 -190.5 79t-190.5 -79t-79 -190.5t79 -190.5q71 -71 171.5 -78t179.5 52l78 -79l57 57zM884.5 12q-64.5 -64 -155.5 -64t-155 64t-64 155.5t64 155.5t155 64t155.5 -64t64.5 -155.5t-64.5 -155.5z" />
    <glyph glyph-name="uniE6B5" unicode="&#xe6b5;" horiz-adv-x="1025" 
d="M289 364h200v-50h-200v50zM946 7q60 81 52 182v607q0 42 -29.5 71t-70.5 29h-798q-42 0 -71 -29t-29 -71v-798q0 -41 29 -70.5t71 -29.5h630q89 0 160 53l78 -79l57 56zM949 166q0 -2 -0.5 -4.5t-0.5 -3.5q0 1 0.5 3.5t0.5 4.5zM100 -52q-21 0 -35.5 14.5t-14.5 35.5v798
q0 21 14.5 35.5t35.5 14.5h798q21 0 35.5 -14.5t14.5 -35.5v-471q-14 18 -28 33q-52 51 -122 70v194q0 23 -17.5 39.5t-42.5 16.5h-479q-24 0 -41.5 -16.5t-17.5 -39.5v-450q0 -23 17.5 -39.5t41.5 -16.5h206q16 -81 74 -139q15 -15 34 -29h-473zM249 533v89q0 6 10 6h479
q10 0 10 -6v-89h-499zM748 484v-48q-57 4 -112 -16t-97 -62q-80 -80 -79 -192h-201q-10 0 -10 6v312h499zM885 12q-64 -64 -155 -64h-1q-91 0 -155 64q-43 44 -58 104l-4 22v2v2q-1 5 -1 9q-1 8 -1 15v0q-1 92 64 157q35 35 81 51t93 12q1 0 8 -1q5 0 9 -1l20 -4q0 -1 1 -1
q6 -1 12 -3q50 -17 87 -53q56 -57 63 -137v-20v-15q-6 -81 -63 -139zM601 287h259v-50h-259v50zM601 194h259v-50h-259v50zM601 100h259v-50h-259v50z" />
    <glyph glyph-name="uniE6B8" unicode="&#xe6b8;" 
d="M157 665h710q10 0 17.5 7t7.5 17.5t-7.5 18t-17.5 7.5h-710q-10 0 -17.5 -7.5t-7.5 -18t7.5 -17.5t17.5 -7zM157 508h710q10 0 17.5 7t7.5 17.5t-7.5 18t-17.5 7.5h-710q-10 0 -17.5 -7.5t-7.5 -18t7.5 -17.5t17.5 -7zM157 351h710q10 0 17.5 7.5t7.5 18t-7.5 17.5
t-17.5 7h-710q-10 0 -17.5 -7t-7.5 -17.5t7.5 -18t17.5 -7.5zM892 219.5q0 10.5 -7.5 18t-17.5 7.5h-710q-10 0 -17.5 -7.5t-7.5 -18t7.5 -18t17.5 -7.5h710q10 0 17.5 7.5t7.5 18zM918 886h-812q-42 0 -71.5 -30t-29.5 -72v-811v-101q19 0 51 1v51v49v59v752q0 21 14.5 36
t35.5 15h812q21 0 35.5 -15t14.5 -36v-679v-87q-253 48 -464 -26q-74 -26 -196 -44v-52q138 21 212 48q62 22 136 31.5t136 7t114.5 -9.5t82.5 -13t30 -7v152v679q0 42 -29.5 72t-71.5 30z" />
    <glyph glyph-name="uniE6B9" unicode="&#xe6b9;" horiz-adv-x="1069" 
d="M870 724h-716q-11 0 -18.5 -7.5t-7.5 -18.5t7.5 -18.5t18.5 -7.5h716q11 0 18.5 7.5t7.5 18.5t-7.5 18.5t-18.5 7.5zM870 565h-716q-11 0 -18.5 -7.5t-7.5 -18t7.5 -18t18.5 -7.5h716q11 0 18.5 7.5t7.5 18t-7.5 18t-18.5 7.5zM154 356h404q7 8 13 14q21 21 48 37h-465
q-11 0 -18.5 -7.5t-7.5 -18t7.5 -18t18.5 -7.5zM506 248h-352q-11 0 -18.5 -7.5t-7.5 -18t7.5 -18t18.5 -7.5h348q-1 27 4 51zM504 -7q-75 -26 -198 -45v-52q139 21 214 49q67 24 149 33q-42 13 -77 40q-47 -10 -88 -25zM922 896h-820q-42 0 -72 -30t-30 -72v-820v-102
q19 0 51 1v51v50v59v761q0 21 15 36t36 15h820q21 0 36 -15t15 -36v-597h51v597q0 42 -30 72t-72 30zM940 406q-84 84 -203 84t-203 -84t-84 -203t84 -202.5t203 -83.5t203 83.5t84 202.5t-84 203zM571 37q-69 69 -69 166.5t69 166.5t166.5 69t166.5 -69t69 -166.5
t-69 -166.5t-166.5 -69t-166.5 69zM980 33q-16 -23 -36 -42q-16 -17 -36 -31l88 -88l72 72z" />
    <glyph glyph-name="uniE6BA" unicode="&#xe6ba;" 
d="M870 724h-716q-11 0 -18.5 -7.5t-7.5 -18.5t7.5 -18.5t18.5 -7.5h716q11 0 18.5 7.5t7.5 18.5t-7.5 18.5t-18.5 7.5zM128 539.5q0 -10.5 7.5 -18t18.5 -7.5h87v51h-87q-11 0 -18.5 -7.5t-7.5 -18zM870 565h-87v-51h87q11 0 18.5 7.5t7.5 18t-7.5 18t-18.5 7.5zM128 381.5
q0 -10.5 7.5 -18t18.5 -7.5h87v51h-87q-11 0 -18.5 -7.5t-7.5 -18zM870 407h-87v-51h87q11 0 18.5 7.5t7.5 18t-7.5 18t-18.5 7.5zM128 222.5q0 -10.5 7.5 -18t18.5 -7.5h87v51h-87q-11 0 -18.5 -7.5t-7.5 -18zM870 248h-87v-51h87q11 0 18.5 7.5t7.5 18t-7.5 18t-18.5 7.5z
M922 896h-820q-42 0 -72 -30t-30 -72v-820v-102q19 0 51 1v51v50v59v761q0 21 15 36t36 15h820q21 0 36 -15t15 -36v-686v-88q-256 48 -469 -27q-75 -26 -198 -45v-52q139 21 214 49q62 22 137 31.5t137.5 7t116 -9.5t83.5 -13t30 -7v154v686q0 42 -30 72t-72 30zM384 372
h106q18 0 31 12t13 29v61q0 17 -13 29t-31 12h-106q-18 0 -31 -12t-13 -29v-61q0 -17 13 -29t31 -12zM381 474h3h106h3v-60q-1 -1 -3 -1h-106q-2 0 -3 1v60zM540 72q29 0 49 20.5t20 50.5v326h26v-272q0 -10 7.5 -17.5t17.5 -7.5h88q10 0 17.5 7.5t7.5 17.5v346q0 12 -9 19
l-60 50q-8 7 -19 6t-17.5 -9t-5.5 -18.5t9 -17.5l51 -42v-308h-36v272q0 11 -7.5 18.5t-18.5 7.5h-51v43q0 29 -20 50t-49 21h-220q-28 0 -48.5 -21t-20.5 -50v-421q0 -30 20.5 -50.5t48.5 -20.5h220zM302 143v421q0 8 5.5 14t12.5 6h220q7 0 12.5 -6t5.5 -14v-421
q0 -8 -5.5 -14t-12.5 -6h-220q-7 0 -12.5 6t-5.5 14z" />
    <glyph glyph-name="uniE6BC" unicode="&#xe6bc;" horiz-adv-x="1025" 
d="M1024 656l-151 16q101 -126 101 -288q0 -94 -36.5 -179.5t-98.5 -147.5t-147.5 -98.5t-179.5 -36.5q-162 0 -288 101q-1 0 -1.5 0.5t-0.5 1.5q-8 6 -18 5t-17 -9q-6 -7 -5 -16.5t7 -15.5l2 -2q68 -55 151 -84.5t170 -29.5q104 0 198.5 40.5t163 109t109 163t40.5 198.5
q0 115 -50 219q-5 11 -1.5 19.5t12 15t18 10t16.5 6.5zM512 846q162 0 288 -101q1 0 1.5 -0.5t0.5 -1.5q8 -6 18 -5t17 9q6 7 5 16.5t-7 15.5l-2 2q-68 55 -151 84.5t-170 29.5q-104 0 -198.5 -40.5t-163 -109t-109 -163t-40.5 -198.5q0 -110 46 -210q5 -12 2 -21.5t-11 -17
t-16.5 -12.5t-15.5 -8l-6 -3l151 -16q-101 126 -101 288q0 94 36.5 179.5t98.5 147.5t147.5 98.5t179.5 36.5zM776 581l-333 -341l-196 178q-8 7 -18.5 6.5t-18 -8t-6.5 -18.5t8 -18l215 -194q8 -7 18 -7t18 8l350 358q7 8 7 18.5t-7.5 18t-18 7.5t-18.5 -8z" />
    <glyph glyph-name="uniE6BD" unicode="&#xe6bd;" 
d="M1022 -77q-13 125 -80.5 229t-175.5 166t-235 67q100 7 168.5 80.5t68.5 174.5q0 106 -75 181t-181 75t-181 -75t-75 -181q0 -101 68.5 -174.5t168.5 -80.5q-127 -5 -235 -67t-175.5 -166t-80.5 -229h-2v-51h51h922h51v51h-2zM307 640q0 85 60 145t145 60t145 -60
t60 -145t-60 -145t-145 -60t-145 60t-60 145zM512 334q117 0 217.5 -54.5t164.5 -148.5t76 -208h-916q12 114 76 208t164.5 148.5t217.5 54.5z" />
    <glyph glyph-name="uniE6DA" unicode="&#xe6da;" 
d="M633 581q0 26 -18.5 44.5t-44.5 18.5t-44.5 -18.5t-18.5 -44.5t18.5 -44.5t44.5 -18.5t44.5 18.5t18.5 44.5zM549 580.5q0 8.5 6 15t15 6.5t15 -6t6 -15t-6 -15t-15 -6t-15 6t-6 14.5zM799 665q9 -20 14 -42h134v-5h-1l-1 -1q-65 -31 -128 -90q-10 -46 -47 -109
q85 103 177 153v-342q-83 9 -197 -3q-31 -3 -107 17q-18 -21 -36.5 -41.5t-27.5 -30.5l-9 -9q-8 8 -20 22q-21 -21 -38 -46q-19 -28 -28.5 -61t-15.5 -80t-10 -66h-202v161q5 -5 14 -5q31 2 53 11.5t47 31.5q56 49 109 82q8 -12 22 -9q12 2 28 3q-24 28 -50 59q-9 -5 -14 -8
q-20 -11 -57.5 -45t-72.5 -57.5t-65 -25.5q-9 0 -14 -6v500h71q6 22 15 42h-86q0 43 -31 73.5t-74 30.5t-74 -30.5t-31 -73.5v-755q0 -43 31 -74t74 -31q38 0 66.5 24t36.5 60h735v776h-190zM197 -132q-19 -21 -46 -21t-46 21q-1 0 -1 1t-1 1q1 -1 1.5 -1t0.5 -1
q19 21 46.5 21t45.5 -21q0 1 0.5 1t1.5 1q-1 -1 -1 -1.5t-1 -0.5zM214 -90q0 -6 -1 -12q1 6 1 12q-28 21 -63 21t-63 -21q0 -6 1 -12q-1 6 -1 12v0q0 26 18.5 44.5t44.5 18.5t44.5 -18.5t18.5 -44.5v0zM214 -6q-28 21 -63 21t-63 -21v671q0 26 18.5 44.5t44.5 18.5
t44.5 -18.5t18.5 -44.5v-671zM947 -69h-446q3 16 8 45.5t8.5 47.5t10.5 43.5t16.5 42.5t23.5 35t34.5 30t46.5 19h1q43 -8 71 -9q41 -1 71 4q72 11 155 -1v-257zM780 560q0 87 -61.5 148t-148.5 61t-148 -61t-61 -148q0 -33 22.5 -80.5t50 -87t63.5 -83.5t50.5 -60t22.5 -24
q9 8 23 23.5t50 60t63.5 84t50.5 87t23 80.5zM570.5 728q69.5 0 118.5 -49.5t49 -118.5q0 -26 -17.5 -63.5t-42 -73t-49 -66.5t-41.5 -51l-18 -19q-7 8 -18 20.5t-40 48.5t-51 68.5t-40 71t-18 64.5q0 69 49 118.5t118.5 49.5z" />
  </font>
</defs>
</svg>
